Our discussion board has been updated to a newer version. If you have a problem with viewing try clearing your browser's cache and refresh.

Indianapolis - 06.26.2014 - 720p Margaritaville.TV Broadcast

Trade bootlegs and get help recording shows

Moderators: SMLCHNG, Saltx3

Post Reply
User avatar
I have found me a home
Posts: 126
Joined: June 24, 2014 7:51 pm
Favorite Buffett Song: Too Many to count
Number of Concerts: 0

Indianapolis - 06.26.2014 - 720p Margaritaville.TV Broadcast

Post by coasterghost » June 27, 2014 1:45 am

Klipsch Music Center - Noblesville, IN
This One's For You
Indianapolis, IN

Runtime: 2h 49mn

**SPECIAL NOTE**: During the streaming, they suffered on the 720p Feed 2 disconnects in the about one minute between them according to the playlist file, it appears in this copy that the issues are not present, but just a heed of caution to if they are there. There might also be artifacts in various other places as it appears though the windows explorer previews, again this is a a heed of caution. I could not obtain another copy like Frisco, as they marked it private in time. This copy also does not have the standard Good Night Everyone graphic as when the show ended, they had a technical difficulty and ended the broadcast there.

01 Summertime Blues
02 Brown Eyed Girl
03 Changes In Latitudes, Changes In Attitudes
04 My Head Hurts, My Feet Stink And I Don't Love Jesus
05 Son Of A Son Of A Sailor
06 Only Time Will Tell
07 Grapefruit Juicy Fruit
08 Too Drunk To Karaoke
09 Come Monday
10 I Will Play For Gumbo
11 Knee Deep
12 Volcano
13 Little Martha (Mac McAnally)
14 He Went To Paris
15 Cheeseburger In Paradise
16 Nobody From Nowhere
17 Getaway Car (Brendan Mayer)
18 Five Oclock Somewhere
19 One Particular Harbour
20 Free / Into The Mystic
21 Southern Cross
22 A Pirate Looks At Forty
23 Fins
24 Margaritaville

25 Why Don't We Get Drunk And Screw

Band Intros
The Coral Reefer Band. Tina Gullickson on vocals. The lovely Nadirah Shakoor. Mr Eric Darken on percussion . Peter Mayer on soprano and guitar. Mr Brendan Mayer on guitar and vocals. Dangerous Doyle Grisham on pedal steel. Mr Mac McAnally, the Muscle Shoals maniac right there. Mr Roger Guth on the drums and fine wine. Jim Mayer on the bass. Our happy lad from Trinidad, Mr Robert Greenidge on those steel drums. The part of John Lovell was played by Kurt Vonnegut, Jr tonight. He'll be back next week. Mr Mike Utley on keyboards and wisdom. And most of all, thank you for an amazing, amazing summer job as I've said before.

26 Scarlet Begonias
27 We Are The People Our Parents Warned Us About
28 Lovely Cruise

Media Infomation:

Code: Select all

ID                                       : 1 (0x1)
Complete name                            : 6.26.2014.ts
Format                                   : MPEG-TS
File size                                : 2.82 GiB
Duration                                 : 2h 49mn
Overall bit rate mode                    : Variable
Overall bit rate                         : 2 388 Kbps

ID                                       : 256 (0x100)
Menu ID                                  : 1 (0x1)
Format                                   : AVC
Format/Info                              : Advanced Video Codec
Format profile                           : Main@L3.1
Format settings, CABAC                   : Yes
Format settings, ReFrames                : 1 frame
Codec ID                                 : 27
Duration                                 : 2h 49mn
Bit rate                                 : 2 016 Kbps
Width                                    : 1 280 pixels
Height                                   : 720 pixels
Display aspect ratio                     : 16:9
Frame rate mode                          : Variable
Color space                              : YUV
Chroma subsampling                       : 4:2:0
Bit depth                                : 8 bits
Scan type                                : Progressive
Stream size                              : 2.38 GiB (84%)

ID                                       : 257 (0x101)
Menu ID                                  : 1 (0x1)
Format                                   : AAC
Format/Info                              : Advanced Audio Codec
Format version                           : Version 4
Format profile                           : LC
Muxing mode                              : ADTS
Codec ID                                 : 15
Duration                                 : 2h 49mn
Bit rate mode                            : Variable
Bit rate                                 : 251 Kbps
Channel(s)                               : 2 channels
Channel positions                        : Front: L R
Sampling rate                            : 48.0 KHz
Compression mode                         : Lossy
Delay relative to video                  : 4ms
Stream size                              : 304 MiB (11%)

Thumbnails (Click Image for Full Size):

Download From Mega.co.nz: https://mega.co.nz/#!QJ0HFZYY!NQsIVc0K7 ... ATj3395FEs
Humor has bailed me out of more tight situations than I can think of. If you go with your instincts and keep your humor, creativity follows. With luck, success comes, too. - Jimmy Buffett

Post Reply

Who is online

Users browsing this forum: No registered users and 5 guests