Our discussion board has been updated to a newer version. If you have a problem with viewing try clearing your browser's cache and refresh.

Charlotte, NC - 04.23.2016 720p Margaritaville.TV Broadcast

Trade bootlegs and get help recording shows

Moderators: SMLCHNG, Saltx3

Post Reply
User avatar
coasterghost
I have found me a home
Posts: 126
Joined: June 24, 2014 7:51 pm
Favorite Buffett Song: Too Many to count
Number of Concerts: 0

Charlotte, NC - 04.23.2016 720p Margaritaville.TV Broadcast

Post by coasterghost » April 25, 2016 4:46 pm

Image
PNC Music Pavilion - Charlotte, NC
Jimmy Buffett and the Coral Reefer Band
Workin' n' Playin' Tour

Runtime: 2h 51mn

Special Note: Sorry I have not released this on time, I was sittin' down in the Waffle House confused as I could be. Ever since I heard the news, I don't know where to pee.

Setlist

Workin' And Playin' (video intro)

01 Ragtop Day
02 Knees Of My Heart
03 My Head Hurts My Feet Stink
04 Great Filling Station Holdup
05 Come Monday
06 Son Of A Son Of A Sailor
07 Five Oclock Somewhere
08 Volcano
09 Workin And Playin
10 Fins
11 Margaritaville
12 Little Martha
13 Bama Breeze
14 License To Chill
15 Silver Wings
16 Cheeseburger In Paradise
17 Coast Of Carolina
18 One Particular Harbour
19 Why Don't We Get Drunk
20 Pirate Looks At Forty
21 Southern Cross

Encore, Band Intros
22 Scarlet Begonias
23 Brown Eyed Girl
24 Changes In Latitudes
25 Purple Rain

Media Information:

Code: Select all

General
Complete name               : 04.23.16.ts
Format                      : MPEG-4
Format profile              : Base Media / Version 2
Codec ID                    : mp42 (isom/mp42)
File size                   : 2.48 GiB
Duration                    : 2h 51mn
Overall bit rate mode       : Variable
Overall bit rate            : 2 073 Kbps
gsst                        : 0
gstd                        : 10289528

Video
ID                          : 1
Format                      : AVC
Format/Info                 : Advanced Video Codec
Format profile              : Main@L3.1
Format settings, CABAC      : Yes
Format settings, ReFrames   : 3 frames
Codec ID                    : avc1
Codec ID/Info               : Advanced Video Coding
Duration                    : 2h 51mn
Bit rate                    : 1 943 Kbps
Width                       : 1 280 pixels
Height                      : 720 pixels
Display aspect ratio        : 16:9
Frame rate mode             : Constant
Frame rate                  : 30.000 fps
Color space                 : YUV
Chroma subsampling          : 4:2:0
Bit depth                   : 8 bits
Scan type                   : Progressive
Bits/(Pixel*Frame)          : 0.070
Stream size                 : 2.33 GiB (94%)
Title                       : ISO Media file produced by Google Inc.
Color range                 : Limited
Color primaries             : BT.709
Transfer characteristics    : BT.709
Matrix coefficients         : BT.709

Audio
ID                          : 2
Format                      : AAC
Format/Info                 : Advanced Audio Codec
Format profile              : LC
Codec ID                    : 40
Duration                    : 2h 51mn
Bit rate mode               : Variable
Bit rate                    : 126 Kbps
Channel(s)                  : 2 channels
Channel positions           : Front: L R
Sampling rate               : 44.1 KHz
Frame rate                  : 43.066 fps (1024 spf)
Compression mode            : Lossy
Stream size                 : 154 MiB (6%)
Title                       : ISO Media file produced by Google Inc.

Thumbnails (Click Image for Full Size):
Image

Download from Mega.co.nz:
https://mega.nz/#!JBNGCZoC!VYez8PKnZSsY ... neQuAjSjj0
Humor has bailed me out of more tight situations than I can think of. If you go with your instincts and keep your humor, creativity follows. With luck, success comes, too. - Jimmy Buffett

sduensin
Newbie
Posts: 1
Joined: June 5, 2015 5:33 pm
Favorite Buffett Song: No way to choose just one!
Number of Concerts: 4

Re: Charlotte, NC - 04.23.2016 720p Margaritaville.TV Broadcast

Post by sduensin » April 27, 2016 2:45 pm

Much appreciated, as always. Thank you.

User avatar
Martyritaville
At the Bama Breeze
Posts: 4411
Joined: July 24, 2006 8:15 pm
Number of Concerts: 0
Location: Freezin' up in Buffalo, stuck in my car...

Re: Charlotte, NC - 04.23.2016 720p Margaritaville.TV Broadcast

Post by Martyritaville » April 27, 2016 5:46 pm

Awesome! Thank you!! :D
A most mysterious calling harbour
So far, but yet, so near
Where I see the day
When my hair's full gray
and I finally...disappear. BUT NOT YET!!

Image

Post Reply