07.19.2014 - Mansfield, MA - 720p MargaritavilleTV Broadcast

Trade bootlegs and get help recording shows

Moderators: SMLCHNG, Saltx3

Post Reply
coasterghost
I have found me a home
Posts: 126
Joined: June 24, 2014 7:51 pm
Favorite Buffett Song: Too Many to count
Number of Concerts: 0

07.19.2014 - Mansfield, MA - 720p MargaritavilleTV Broadcast

Post by coasterghost »

Image
Xfinity Center
This One's For You
Mansfield, MA

Runtime: 2h 33mn

**SPECIAL NOTE**: They had 4 moments at the end of where they lost connectivity.

Setlist
Conch Shell / Lovely Cruise (instrumental)
01 Brown Eyed Girl
02 Changes In Latitudes
03 My Head Hurts My Feet Stink
04 Son Of A Son Of A Sailor
05 Pencil Thin Mustache
06 Jolly Mon Sing
07 Bama Breeze
08 Knees Of My Heart
09 Come Monday
10 Mexico
11 Knee Deep
12 Volcano
13 Little Martha (ft Mac McAnally)
14 He Went To Paris
15 Cheeseburger In Paradise
16 Scarlet Begonias
17 Something To Say (ft Brendan Mayer, premiere)
18 One Particular Harbour
19 Free / Into The Mystic
20 Southern Cross
21 Pirate Looks At Forty
22 Fins
23 Margaritaville

Encore
24 Five Oclock Somewhere / Why Don't We Get Drunk

Band Intros
25 We Are The People Our Parents Warned Us About
26 Dirty Water
27 Lovely Cruise

Media Infomation:

Code: Select all

General
ID                                       : 1 (0x1)
Complete name                            : 07.19.2014.ts
Format                                   : MPEG-TS
File size                                : 2.65 GiB
Duration                                 : 2h 33mn
Overall bit rate mode                    : Variable
Overall bit rate                         : 2 471 Kbps

Video
ID                                       : 256 (0x100)
Menu ID                                  : 1 (0x1)
Format                                   : AVC
Format/Info                              : Advanced Video Codec
Format profile                           : Main@L3.1
Format settings, CABAC                   : Yes
Format settings, ReFrames                : 1 frame
Codec ID                                 : 27
Duration                                 : 2h 33mn
Bit rate                                 : 2 095 Kbps
Width                                    : 1 280 pixels
Height                                   : 720 pixels
Display aspect ratio                     : 16:9
Frame rate mode                          : Variable
Color space                              : YUV
Chroma subsampling                       : 4:2:0
Bit depth                                : 8 bits
Scan type                                : Progressive
Stream size                              : 2.25 GiB (85%)

Audio
ID                                       : 257 (0x101)
Menu ID                                  : 1 (0x1)
Format                                   : AAC
Format/Info                              : Advanced Audio Codec
Format version                           : Version 4
Format profile                           : LC
Muxing mode                              : ADTS
Codec ID                                 : 15
Duration                                 : 2h 33mn
Bit rate mode                            : Variable
Bit rate                                 : 251 Kbps
Channel(s)                               : 2 channels
Channel positions                        : Front: L R
Sampling rate                            : 48.0 KHz
Compression mode                         : Lossy
Delay relative to video                  : 4ms
Stream size                              : 276 MiB (10%)

Menu
ID                                       : 4095 (0xFFF)
Menu ID                                  : 1 (0x1)
Duration                                 : 2h 33mn
List                                     : 256 (0x100) (AVC) / 257 (0x101) (AAC)
Service name                             : Google
Service provider                         : FFmpeg
Service type                             : digital television
Thumbnails (Click Image for Full Size):
Image

Download From Mega.co.nz: https://mega.nz/#!kZtVCRwL!oVSTRTDn2J-f ... LPq-a1UfSU
Last edited by coasterghost on May 14, 2016 1:22 pm, edited 1 time in total.
Humor has bailed me out of more tight situations than I can think of. If you go with your instincts and keep your humor, creativity follows. With luck, success comes, too. - Jimmy Buffett

MassPirate40
Nibblin' on sponge cake
Posts: 48
Joined: July 17, 2014 4:22 pm
Favorite Buffett Song: All Of Them
Number of Concerts: 7
Favorite Boat Drink: Beer,Rum,Margarita
Location: Central Ma.
Contact:

Re: 07.19.2014 - Mansfield, MA - 720p MargaritavilleTV Broadcast

Post by MassPirate40 »

Thank you for doing this coasterghost. I was At Mansfield tonight and had problems with the tickets I got through Stub Hub, so I never got in to see the show. I had fun in the parking lot and even met A few BN people ,Even though I haven,t been around here long .All great People that I met from BN. Thanks to You And what you Do I get to see the show I missed and even show my keet that went with me and she had a blast in the lot . Thanks again without this I would have missed it.

jimsig
Overkill
Posts: 1011
Joined: March 4, 2002 7:00 pm
Number of Concerts: 25
Contact:

Re: 07.19.2014 - Mansfield, MA - 720p MargaritavilleTV Broadcast

Post by jimsig »

Thanks for posting Coasterghost. Now just to figure out where Chrome put it and to watch it as a soon as it's done downloading.
Jim

Johnny's Lounge
Gypsies in the palace
Posts: 475
Joined: March 3, 2003 8:59 pm
Favorite Buffett Song: ~~^~~ Fins ~~^~~
Number of Concerts: 31
Favorite Boat Drink: Don't know anymore.
Location: 14.24 miles from Great Woods

Re: 07.19.2014 - Mansfield, MA - 720p MargaritavilleTV Broadcast

Post by Johnny's Lounge »

It's gone?
"Reading departure signs in some big airport
Reminds me of the places I've been.
Visions of good times that brought
so much pleasure
makes me want to go back again."

urlcenter
Hoot!
Posts: 2688
Joined: November 5, 2003 8:26 pm
Number of Concerts: 6

Re: 07.19.2014 - Mansfield, MA - 720p MargaritavilleTV Broadcast

Post by urlcenter »

Johnny's Lounge wrote:It's gone?
The link may have changed, this happened with another show just recently, I sent a message to the user to let him know

coasterghost
I have found me a home
Posts: 126
Joined: June 24, 2014 7:51 pm
Favorite Buffett Song: Too Many to count
Number of Concerts: 0

Re: 07.19.2014 - Mansfield, MA - 720p MargaritavilleTV Broadcast

Post by coasterghost »

Johnny's Lounge wrote:It's gone?
I don't know what made the link go off line, but it's been replaced.
Humor has bailed me out of more tight situations than I can think of. If you go with your instincts and keep your humor, creativity follows. With luck, success comes, too. - Jimmy Buffett

Post Reply